#TITLE:Battalions By young_editer@hotmail.com;
#ARTIST:I;
#FILE:04 Battalions.mp3;
#BPM:179.981;
#GAP:-963;
#SAMPLESTART:1.980;
#SAMPLELENGTH:147.280;
#CDTITLE:Nepex-Chart.bmp;
#CHANGEBPM:1360.000=89.991,1392.000=179.981,2352.000=120.041,2352.250=184.001,2352.500=120.041;
#SINGLE:MANIAC:12:
00000000
(6660006660004444)
(2220002220008888)
(6660006660008888)
(4440004440002222)
(6660006660004444)
(2220002220004444)
(8880008880006666)
(2220002220008888)
(4440004440002222)
(6660006660008888)
(2220002220006666)
(4440004440008888)
(10A0309!9000904444)
(3!3030003!3030008888)
3!33990111
10AA0330
(7!7070007!7070006666)
(A!A0A000A!A0A0008888)
1!11990777
68246428
(B03000A000008888)
(3!3030003!3030004444)
A0390931
701A0790
(7!7070007!7070006666)
(1!1010001!1010008888)
10930390
(B082801090B07030)
(A880B02222207000)
(6660A04444409000)
(8880302222207000)
(6660A04444409000)
(2220908888803000)
(4440902222207000)
(6660308888801000)
(6660A04444B30090)
(A00090444440A000)
(666010666660A000)
(2220B08888809000)
(222090888880B040)
(6660108888803000)
(2220904444409000)
(222090444440A000)
(6464602828264842)
(9!9090828428286286)
(8482682864246286)
(8262868482428482)
(8482824282626824)
(2828242624286282)
(4284682428628682)
(8286826286826286)
(82848264A0646010)
(A220B08888803000)
(4440A06666601000)
(2220708888803000)
(4440A06666601040)
(8880102222207000)
(6660108888803000)
(4440702222209000)
(4440A06666621040)
(888010666660A000)
(444090444440A000)
(8880B02222201000)
(888010222226B080)
(4440902222207000)
(8880106666601000)
(888010666660A000)
(4646408282846268)
(1!1010282682824824)
(2628428246864824)
(2848242628682628)
(2628286828484286)
(8282868486824828)
(6826428682482428)
(2824284824284824)
(282628428680B000)
(4628682848284826)
(2868286828482842)
(6242624286848684)
(8686286848682828)
(4826286848262848)
(2848262868268242)
(8628682628682628)
(6828424824284282)
{6060600000006060600000004040404020202000000020202000000080808080}
{6060600000006060600000008080808040404000000040404000000020202020}
(2482846286848268)
(2864282482848684)
(8268286286848268)
(2428262862627000)
(4440004440002222)
(6660006660008888)
(2220002220006666)
(4440004440008888)
(6660006660004444)
(2220002220008888)
(6660006660008888)
(4440004440002222)
(90A0001!1000106666)
(7!7070007!7070002222)
7!77110999
90AA0770
(3!3030003!3030008888)
(B!B0B000B!B0B0004444)
3!33770111
84628264
(A09020B000004444)
(9!9090009!9090002222)
7!77110999
90AA0770
(3!3030003!3030006666)
(1!1010001!1010006666)
7!77330AAA
(B026209030424090)
(A220B08888803000)
(4440A06666601000)
(2220708888803000)
(4440A06666681040)
(8880102222207000)
(6660108888803000)
(4440702222209000)
(4440A06666621040)
(888010666660A000)
(444090444440A000)
(8880B02222201000)
(888010222226B080)
(4440902222207000)
(8880106666601000)
(888010666660A000)
(4646408282846268)
(1!1010282682824824)
(2628428246864824)
(2848242628682628)
(2628286828484286)
(8282868486824828)
(6826428682482428)
(2824284824284824)
(2826284286862848)
(4628682848284826)
(2868286828482842)
(6242624286848684)
(8686286848682828)
(4826286848262848)
(2848262868268242)
(8628682628682628)
(6828424824284282)
[666600444400888800222200]
[6666004444008888003010A0]
[444400222200666600444400]
[88880044440022220090B030]
[144400666600888800444400]
[22220066660070003000A010]
[666600222200888800444400]
[666600444400A000B0009030]
[444400666600222200888800]
[4444006666009000B0007030]
[444400888800222200444400]
[666600222200888800A0B030]
[606060B060603060B0906060]
[306090B060603060B0906060]
[306090B060603060B0906060]
[306090B060603060B0900000]
[004040104040704010B04040]
[7040B0104040704010B04040]
[7040B0104040700428B00000]
[666600888800444400666600]
[22220066660010009000B070]
[966600444400222200666600]
[88880044446260007030A060]
[444400888800222200666600]
[444400666600100090003070]
[366600444400888800222200]
[6666004444006046403070A0]
[A02030A020201020A0302020]
[102030A020201020A0302020]
[102030A020201020A0302020]
[102030A020201020A0300000]
[0080A0708080908070A08080]
[9080A0708080908070A08080]
[9080A0708080908070A08080]
[966666600700A00000A09010]
`B00000004000000040000000400000004000000040000000400000004000000040000000400000000000000000000000600000200000600000200000600000200000600000200000B00000000000000000000000000000000000000000000000'
[144444400A00B00000A01090]
[B666666666009010A0B00000]
[966666600A00B00000A09010]
`B00000004000000040000000400000004000000040000000400000004000000040000000400000000000000000000000600000200000600000200000600000200000600000200000B00000000000000000000000000000000000000000000000'
[788888800B00A00000B07030]
[A22222222200703010A00000]
;
#SINGLE:SMANIAC:14:
00000000
(366010669000B444)
(A220B0221000A888)
(B660A066B0009888)
(144030447000A222)
(9660A06690001444)
(32207022A0001444)
(9880B088A000B666)
(A22090221000A888)
(14403044B000A222)
(9660106630009888)
(1220B022A0003666)
(7440A044B000A888)
(<61>0A0<83>09!9010901444)
(<83!3>030703!30<19>0009888)
<43!3>3<83><83>A<81><81><81>
<81>0<83><83>0<61><61>0
(7!7070307!70<19>0009666)
(<4A!A>0A0B0A!A0<19>000A888)
<61!1>1<83><83>A<8B><8B><8B>
38349438
(<8B>03040A!A0A0009888)
(<43!3>030703!30<19>000B444)
<83>0<61><83>1<8B><61><8B>
<81>0<61><83>B<81><83>0
(<27!7>070A07!70<19>000B666)
(<81!1>010301!10<19>0009888)
<61>0<8B><83>1<83><8B>0
(<61>09190<81>0<83>0<61>0<8B>0<83>0)
(A880B02222207000)
(6660A04444409000)
(8880302222207000)
(6660A04444409000)
(2220908888803000)
(4440902222207000)
(6660308888801000)
(6660A04444B30090)
(A00090444440A000)
(666010666660A000)
(2220B08888809000)
(222090888880B040)
(6660108888803000)
(2220904444409000)
(222090444440A000)
(6464602828264842)
(9!909092842828B286)
(8482B82864249286)
(8262768482429482)
(848292428262B824)
(282834262428B282)
(4284382428627682)
(828672628682B286)
(82849264A0646010)
(A220B08888803000)
(4440A06666601000)
(2220708888803000)
(4440A06666601040)
(8880102222207000)
(6660108888803000)
(4440702222209000)
(4440A06666621040)
(888010666660A000)
(444090444440A000)
(8880B02222201000)
(888010222226B080)
(4440902222207000)
(8880106666601000)
(888010666660A000)
(4646408282846268)
(1!101018268282B824)
(2628B28246861824)
(2848342628681628)
(262818682848B286)
(828276848682B828)
(6826728682483428)
(282438482428B824)
(282618428680B000)
(4628B8284828B826)
(2868186828483842)
(624292428684A684)
(8686186848681828)
(4826186848261848)
(2848162868267242)
(8628B82628681628)
(6828B2482428B282)
{9060600000006060600000004040404020202000000020202000000080808080}
{6060600000006060600000008080808040404000000040404000000020202020}
(2482846286848268)
(2864282482848684)
(8268286286848268)
(3138191891927000)
(B440A044B0001222)
(9660706630009888)
(32201022A0003666)
(74403044B000A888)
(3660906630001444)
(A220B02230009888)
(B66070663000A888)
(1440A04470003222)
(<8B>0<81>0B0<8!81!1>060<81>0B666)
(<27!7>070107!70<19>000A222)
<67!7>7<81><81>A<83><83><83>
<83>0<61><61>A<8B><8B>0
(<43!3>030B03!30<19>0009888)
(<2B!B>0B010B!B0<19>000B444)
<83!3>3<8B><8B>A<81><81><81>
94927294
(A09020B000001444)
(<29!9>090B09!90<19>0003222)
<67!7>7<81><81>A<8B><8B><8B>
<8B>0<83><83>B<61><61>0
(<83!3>030103!30<19>0003666)
(<81!1>010A01!10<19>0003666)
<27!7>7<83><83>A<81><81><81>
(B026209030424090)
(A220B08888803000)
(4440A06666601000)
(2220708888803000)
(4440A06666681040)
(8880102222207000)
(6660108888803000)
(4440702222209000)
(4440A06666621040)
(888010666660A000)
(444090444440A000)
(8880B02222201000)
(888010222226B080)
(4440902222207000)
(8880106666601000)
(888010666660A000)
(4646408282846268)
(1!101018268282B824)
(2628B28246861824)
(2848342628681628)
(262818682848B286)
(828276848682B828)
(6826728682483428)
(282438482428B824)
(2826184286861848)
(4628B8284828B826)
(2868186828483842)
(624292428684A684)
(8686186848681828)
(4826186848261848)
(2848162868267242)
(8628B82628681628)
(6828B2482428B282)
[666600444400888800222200]
[6666004444008888003010A0]
[444400222200666600444400]
[88880044440022220090B030]
[144400666600A88800444400]
[22220066660070003000A010]
[666600222200988800444400]
[666600444400A0009000B030]
[444400666600122200888800]
[4444006666001000A000B030]
[444400888800322200444400]
[666600222200788800A0B030]
[606090B060603060B0906060]
[306090B060603060B0906060]
[306090B060603060B0906060]
[306090B060603060B0900000]
[0040B0104040704010B04040]
[7040B0104040704010B04040]
[7040B0104040700428B00000]
[666600888800144400666600]
[222200666600B000A000B070]
[966600444400A22200666600]
[88880044446290007030A060]
[444400888800322200666600]
[444400666600144490003070]
[366600444400788800222200]
[6666004444009046403070A0]
[A02030A020201020A0302020]
[102030A020201020A0302020]
[102030A020201020A0302020]
[102030A020201020A0300000]
[0080A0708080908070A08080]
[9080A0708080908070A08080]
[9080A0708080908070A08080]
[966666600700A00000A09010]
`B00000004000000040000000400000004000000040000000700000004000000040000000400000000000000000000000600000200000600000200000600000200000600000200000B00000000000000000000000000000000000000000000000'
[444444100A00B00000A01090]
[B666663666009010A0B00000]
[966666B00A00B00000A09010]
`B00000004000000040000000400000004000000040000000700000004000000040000000400000000000000000000000600000200000600000200000600000200000600000200000B00000000000000000000000000000000000000000000000'
[788888A00B00A00000B07030]
[A22222322200703010A00000]
;
#SINGLE:ANOTHER:11:
00000000
(6820002860004646)
(2820008280008484)
(6820002680008686)
(4240002420006262)
(8680006860004646)
(2820008280004242)
(8680006860006262)
(8280002820008282)
(4640004640002828)
(6260006260008686)
(2420002420006262)
(4840004840008686)
(10A0309!9000904284)
(3!3030003!3030006284)
3!33990111
10AA0330
(7!7070007!7070006464)
(A!A0A000A!A0A0008888)
1!11990777
68246428
(B03000A000002648)
(3!3030003!3030004286)
A0390931
701A0790
(7!7070007!7070006248)
(1!1010001!1010008468)
10930390
(B082801090B07030)
(A480B02628407000)
(6460A04282409000)
(8480302824207000)
(6280A04628409000)
(2860902868403000)
(4820904282607000)
(6420308286801000)
(4680A04284200090)
(A00090464840A000)
(684010864840A000)
(2860B08268409000)
(264090682860B040)
(2860108482803000)
(2420904642409000)
(264090428640A000)
(6464602828264842)
(9!9090828428286286)
(8482682864246286)
(8262868482428482)
(8482824282626824)
(2828242624286282)
(4284682428628682)
(8286826286826286)
(82848264A0646010)
(A620B08648403000)
(4640A06428601000)
(2620708684803000)
(4860A06482601040)
(8680102862607000)
(6820108684803000)
(4260702628209000)
(4240A06824601040)
(848010468260A000)
(464090842460A000)
(4820B08282801000)
(868010268280B080)
(4640902628207000)
(8260104626801000)
(868010428640A000)
(4646408282846268)
(1!1010282682824824)
(2628428246864824)
(2848242628682628)
(2628286828484286)
(8282868486824828)
(6826428682482428)
(2824284824284824)
(282628428680B000)
(4628682848284826)
(2868286828482842)
(6242624286848684)
(8686286848682828)
(4826286848262848)
(2848262868268242)
(8628682628682628)
(6828424824284282)
{6080600000008060800000004080408020602000000020602000000080208020}
{6040600000006040600000008040804020602000000060206000000020802040}
(2482846286848268)
(2864282482848684)
(8268286286848268)
(2428262862627000)
(4280008240002824)
(6860006860008486)
(2820002820006826)
(4240004640008482)
(6860006860004628)
(2420002420004828)
(6460006460008282)
(4640004640002824)
(90A0001!1000106862)
(7!7070007!7070002682)
7!77110999
90AA0770
(3!3030003!3030004868)
(B!B0B000B!B0B0004684)
3!33770111
84628264
(A09020B000004642)
(9!9090009!9090004682)
7!77110999
90AA0770
(3!3030003!3030004826)
(1!1010001!1010006462)
7!77330AAA
(B026209030424090)
(A460B08468603000)
(4820A06468601000)
(2620708468203000)
(4640A02682601040)
(8460102682407000)
(6820104828603000)
(4620702482609000)
(4680A06268601040)
(828010642860A000)
(642090842480A000)
(8620B02682401000)
(868010268240B080)
(4680902482407000)
(2860108626801000)
(268010828620A000)
(4646408282846268)
(1!1010282682824824)
(2628428246864824)
(2848242628682628)
(2628286828484286)
(8282868486824828)
(6826428682482428)
(2824284824284824)
(2826284286862848)
(4628682848284826)
(2868286828482842)
(6242624286848684)
(8686286848682828)
(4826286848262848)
(2848262868268242)
(8628682628682628)
(6828424824284282)
[686800424200828200626200]
[6464004848008484003010A0]
[646400242400686800464600]
[82820042860024280090B030]
[184200626800868200248400]
[28240062840070003000A010]
[268600248200826800462800]
[682400428600A000B0009030]
[484200648200268200868200]
[4286006284009000B0007030]
[428600828600628400428600]
[626800248600824800A0B030]
(8002B00020043000)
(B00290002004A000)
(8004A00010049000)
(8008100040029000)
(4006A00060049000)
(400290006002B000)
`600000000000000000000000000000000000600000000000100000000000000000000000000000000000000000000000800000000000000000000000400000002000000080000000B00000000000000000000000000000000000000000000000'
[646200828600428400628600]
[26820064260010009000B070]
[926400484600284200682600]
[86820048426260007030A060]
[428400846800428600268400]
[462800642800100090003070]
[384600464200868400282400]
[6862004842006046403070A0]
(A006A00040081000)
(600270004008A000)
(3006B0002002A000)
(8004100060023000)
(2008700080041000)
(6008700090087000)
(600870006004B000)
[628262600700A00000A09010]
`400000008000000020000000600000002000000060000000800000006000000020000000600000000000000000000000600000200000600000200000600000200000600000200000600000000000000000000000000000000000000000000000'
[468242800A00B00000A01090]
[4828682868009010A0B00000]
[642624600A00B00000A09010]
`400000002000000080000000400000002000000080000000400000008000000060000000200000000000000000000000600000200000600000200000600000200000600000200000400000000000000000000000000000000000000000000000'
[426824800B00A00000B07030]
[864826828600703010A00000]
;
